Direct Download Chumbawamba - First 2 (1986 & 1987)

Hits: 456

Pictures of Starving Children Sell Records: Long before a song about relentless alcohol consumption ("Tubthumping") made them the toast of sports stadia worldwide, a rather different Chumbawamba stalked the toilet venues of England's counterculture. In 1986, as the rock world congratulated itself on its new, enlightened attitude to world poverty following Band Aid, a refusenik group of Leeds anarchists pointed out some of the inconsistencies behind the arguments.

On the aptly titled Pictures of Starving Children Sell Records, Freddie Mercury, Cliff Richard, and Paul McCartney are ridiculed for their patronizing hypocrisy ("How to Get Your Band on Television"). Other targets included apartheid, multinationals, and cultural imperialism. The group's pervasive lyrics were augmented by music varying from punk-thrash to folk and jazz. This was a sophisticated approach entirely divorced from their fellow travelers (who contented themselves with sloganeering and three-chord bluster). For an album that adopted Crass' admirable but po-faced concerns about commercial exploitation of the planet and its inhabitants, the results were surprisingly listenable, and also extremely entertaining -- an "inconsistent, over-wordy dog-bark pop record" according to its authors when it was reissued on CD in 1991 (alongside Never Mind the Ballots as First 2) ~Allmusic
Track listing
--Pictures of Starving Children Sell Records
01. How To Get Your Band On Television (8:23)
02. British Colonialism & The BBC (2:51)
03. Commercial Break (1:02)
04. Unilever (4:23)
05. More Whitewashing (3:43)
06. An Interlude (2:41)
07. Dutiful Servants & Political Masters (2:15)
08. Coca (2:13)
09. ...And In A Nutshell (0:54)
10. Invasion (5:07)
--Never Mind The Ballots
11. Always Tell The Voter What The Voter Wants To Hear (2:51)
12. Come On Baby (Let's Do The Revolution) (1:40)
13. The Wasteland (4:23)
14. Today's Sermon (2:29)
15. Ah (2:29)
16. Mr. Heseltine Meets His Public (3:51)
17. The Candidates Find Common Ground (4:29)
18. ...Here's The Rest Of Your Life (13:22)
~ (69:08)
Exact Audio Copy V0.99 prebeta 4 from 23. January 2008
EAC extraction logfile from 16. March 2009, 10:44
Chumbawamba / First 2
Used drive : PLEXTOR DVDR PX-760A Adapter: 0 ID: 0
Read mode : Secure
Utilize accurate stream : Yes
Defeat audio cache : Yes
Make use of C2 pointers : No
Read offset correction
: 30
Overread into Lead-In and Lead-Out : Yes
Fill up missing offset samples with silence : Yes
Delete leading and trailing silent blocks : No
Null samples used in CRC calculations : Yes
Used interface
: Installed external ASPI interface
Gap handling
: Appended to previous track
Used output format : Internal WAV Routines
Sample format : 44.100 Hz; 16 Bit; Stereo
TOC of the extracted CD Track | Start | Length | Start sector | End sector
--1 | 0:00.33 | 8:22.40 | 33 | 37722 2 | 8:22.73 | 2:51.05 | 37723 | 50552 3 | 11:14.03 | 1:02.27 | 50553 | 55229 4 | 12:16.30 | 4:23.20 | 55230 | 74974 5 | 16:39.50 | 3:42.40 | 74975 | 91664 6 | 20:22.15 | 2:40.43 | 91665 | 103707 7 | 23:02.58 | 2:15.12 | 103708 | 113844 8 | 25:17.70 | 2:13.03 | 113845 | 123822 9 | 27:30.73 | 0:53.62 | 123823 | 127859
10 | 28:24.60 | 5:07.20 | 127860 | 150904
11 | 33:32.05 | 2:51.25 | 150905 | 163754
12 | 36:23.30 | 1:39.38 | 163755 | 171217
13 | 38:02.68 | 4:23.32 | 171218 | 190974
14 | 42:26.25 | 2:28.43 | 190975 | 202117
15 | 44:54.68 | 2:29.20 | 202118 | 213312
16 | 47:24.13 | 3:51.07 | 213313 | 230644
17 | 51:15.20 | 4:29.25 | 230645 | 250844
18 | 55:44.45 | 13:22.33 | 250845 | 311027
Track 1 Filename F:\01\Chumbawanba - First 2\01- Chumbawamba - How To Get Your Band On Television.wav Pre-gap length 0:00:02.33 Peak level 91.4 %
Track quality 100.0 %
Test CRC A6BC112D
Copy CRC A6BC112D
Accurately ripped (confidence 5) [2C917618]
Copy OK
Track 2 Filename F:\01\Chumbawanba - First 2\02- Chumbawamba - British Colonialism & The BBC.wav Peak level 76.4 %
Track quality 100.0 %
Test CRC 13302E00
Copy CRC 13302E00
Accurately ripped (confidence 5) [49DFF487]
Copy OK
Track 3 Filename F:\01\Chumbawanba - First 2\03- Chumbawamba - Commercial Break.wav Pre-gap length 0:00:00.01 Peak level 61.6 %
Track quality 100.0 %
Test CRC 20D26818
Copy CRC 20D26818
Accurately ripped (confidence 5) [153B6FBF]
Copy OK
Track 4 Filename F:\01\Chumbawanba - First 2\04- Chumbawamba - Unilever.wav Peak level 84.5 %
Track quality 100.0 %
Test CRC A4C1103A
Copy CRC A4C1103A
Accurately ripped (confidence 5) [99F344CF]
Copy OK
Track 5 Filename F:\01\Chumbawanba - First 2\05- Chumbawamba - More Whitewashing.wav Peak level 89.9 %
Track quality 100.0 %
Test CRC EBBE72DB
Copy CRC EBBE72DB
Accurately ripped (confidence 5) [8BE03302]
Copy OK
Track 6 Filename F:\01\Chumbawanba - First 2\06- Chumbawamba - An Interlude- Beginning To Take It Back.wav Peak level 40.3 %
Track quality 100.0 %
Test CRC 712115B0
Copy CRC 712115B0
Accurately ripped (confidence 5) [FE7E8F0D]
Copy OK
Track 7 Filename F:\01\Chumbawanba - First 2\07- Chumbawamba - Dutiful Servants & Political Masters.wav Peak level 79.7 %
Track quality 99.9 %
Test CRC 77110B66
Copy CRC 77110B66
Accurately ripped (confidence 5) [EEEC3C5E]
Copy OK
Track 8 Filename F:\01\Chumbawanba - First 2\08- Chumbawamba - Coca-Colanisation.wav Pre-gap length 0:00:00.01 Peak level 85.5 %
Track quality 100.0 %
Test CRC 77D4D88B
Copy CRC 77D4D88B
Accurately ripped (confidence 5) [3ADD1DEF]
Copy OK
Track 9 Filename F:\01\Chumbawanba - First 2\09- Chumbawamba - ...And In A Nutshell.wav Pre-gap length 0:00:00.01 Peak level 37.6 %
Track quality 100.0 %
Test CRC 446A0822
Copy CRC 446A0822
Accurately ripped (confidence 5) [AB68A52F]
Copy OK
Track 10 Filename F:\01\Chumbawanba - First 2\10- Chumbawamba - Invasion.wav Peak level 97.9 %
Track quality 100.0 %
Test CRC A036972D
Copy CRC A036972D
Accurately ripped (confidence 5) [C18BEB81]
Copy OK
Track 11 Filename F:\01\Chumbawanba - First 2\11- Chumbawamba - Always Tell The Voter What The Voter Wants To Hear.wav Peak level 71.9 %
Track quality 99.9 %
Test CRC 91BC16FF
Copy CRC 91BC16FF
Accurately ripped (confidence 5) [D71DEA7A]
Copy OK
Track 12 Filename F:\01\Chumbawanba - First 2\12- Chumbawamba - Come On Baby (Let's Do The Revolution).wav Pre-gap length 0:00:00.01 Peak level 84.4 %
Track quality 100.0 %
Test CRC CF5F8445
Copy CRC CF5F8445
Accurately ripped (confidence 5) [886A7FE1]
Copy OK
Track 13 Filename F:\01\Chumbawanba - First 2\13- Chumbawamba - The Wasteland.wav Peak level 75.6 %
Track quality 100.0 %
Test CRC 7F6AD879
Copy CRC 7F6AD879
Accurately ripped (confidence 4) [FFCAB298]
Copy OK
Track 14 Filename F:\01\Chumbawanba - First 2\14- Chumbawamba - Today's Sermon.wav Peak level 51.1 %
Track quality 100.0 %
Test CRC A87113D4
Copy CRC A87113D4
Accurately ripped (confidence 5) 6084D82
Copy OK
Track 15 Filename F:\01\Chumbawanba - First 2\15- Chumbawamba - Ah-Men.wav Peak level 75.6 %
Track quality 100.0 %
Test CRC BAF60FA8
Copy CRC BAF60FA8
Accurately ripped (confidence 5) [160744A5]
Copy OK
Track 16 Filename F:\01\Chumbawanba - First 2\16- Chumbawamba - Mr. Heseltine Meets His Public.wav Peak level 71.7 %
Track quality 99.9 %
Test CRC 97ECB372
Copy CRC 97ECB372
Accurately ripped (confidence 5) [DDDADCC8]
Copy OK
Track 17 Filename F:\01\Chumbawanba - First 2\17- Chumbawamba - The Candidates Find Common Ground.wav Peak level 82.6 %
Track quality 100.0 %
Test CRC 23C98AC3
Copy CRC 23C98AC3
Accurately ripped (confidence 5) [04C6D3EB]
Copy OK
Track 18 Filename F:\01\Chumbawanba - First 2\18- Chumbawamba - ...Here's The Rest Of Your Life.wav Pre-gap length 0:00:00.01 Peak level 80.8 %
Track quality 100.0 %
Test CRC F1E6047D
Copy CRC F1E6047D
Accurately ripped (confidence 2) [ED93E946]
Copy OK
All tracks accurately ripped
No errors occurred
End of status report
[CUETools log; Date: 2015.08.06. 8:46:45; Version: 2.1.5]
Pregap length 00:00:33.
[CTDB TOCID: H7C7l7TZvxvmjVON_hxWutFr6.U-] found.
Track | CTDB Status
1 | (4/5) Accurately ripped
2 | (4/5) Accurately ripped
3 | (4/5) Accurately ripped
4 | (4/5) Accurately ripped
5 | (4/5) Accurately ripped
6 | (4/5) Accurately ripped
7 | (4/5) Accurately ripped
8 | (4/5) Accurately ripped
9 | (4/5) Accurately ripped
10 | (4/5) Accurately ripped
11 | (4/5) Accurately ripped
12 | (4/5) Accurately ripped
13 | (4/5) Accurately ripped
14 | (4/5) Accurately ripped
15 | (4/5) Accurately ripped
16 | (4/5) Accurately ripped
17 | (4/5) Accurately ripped
18 | (4/5) Accurately ripped
[AccurateRip ID: 0028a719-0211bfbe-fd103312] found.
Track [ CRC | V2 ] Status
01 [2c917618|ab16a190] (07+02/19) Accurately ripped
02 [49dff487|4065f34c] (07+02/21) Accurately ripped
03 [153b6fbf|4f193146] (07+02/21) Accurately ripped
04 [99f344cf|37e2ae2b] (07+02/21) Accurately ripped
05 [8be03302|b63a0eff] (07+02/21) Accurately ripped
06 [fe7e8f0d|baaaffa1] (07+02/21) Accurately ripped
07 [eeec3c5e|8408a622] (07+02/21) Accurately ripped
08 [3add1def|b4f930cf] (07+02/21) Accurately ripped
09 [ab68a52f|ac36cba5] (07+02/21) Accurately ripped
10 [c18beb81|329a8758] (07+02/21) Accurately ripped
11 [d71dea7a|27a9f2b1] (07+02/21) Accurately ripped
12 [886a7fe1|62d110c9] (07+02/21) Accurately ripped
13 [ffcab298|ccc53123] (07+02/21) Accurately ripped
14 6084d82|12732ca3 (07+02/21) Accurately ripped
15 [160744a5|b7639744] (07+02/21) Accurately ripped
16 [dddadcc8|d761d0eb] (07+02/21) Accurately ripped
17 [04c6d3eb|0d9a6188] (07+02/20) Accurately ripped
18 [ed93e946|141af5cf] (05+02/19) Accurately ripped
Offsetted by -412:
01 [623ca654] (00/19) No match (V2 was not tested)
02 [4f4e8057] (00/21) No match (V2 was not tested)
03 [a9c40fae] (00/21) No match (V2 was not tested)
04 [ad16d852] (00/21) No match (V2 was not tested)
05 dbd104f (00/21) No match (V2 was not tested)
06 [80bdd66d] (00/21) No match (V2 was not tested)
07 [f07e7d06] (00/21) No match (V2 was not tested)
08 [334d50b8] (00/21) No match (V2 was not tested)
09 [e4296f12] (00/21) No match (V2 was not tested)
10 [3b77e84a] (00/21) No match (V2 was not tested)
11 [5fd8d3ea] (00/21) No match (V2 was not tested)
12 [87da4edf] (00/21) No match (V2 was not tested)
13 [41cbe300] (00/21) No match (V2 was not tested)
14 [3e18d63c] (00/21) No match (V2 was not tested)
15 [af370c7b] (00/21) No match (V2 was not tested)
16 [8aa0fedc] (00/21) No match (V2 was not tested)
17 [150459ea] (00/20) No match (V2 was not tested)
18 [6bf9d4ed] (00/19) No match (V2 was not tested)
Track Peak [ CRC32 ] [W/O NULL] [ LOG ]
-- 97,9 [CFCBA8AA] [5BAEF34F]
01 91,4 [A6BC112D] [FC4276DD] CRC32
02 76,4 [13302E00] [E63A01C9] CRC32
03 61,6 [20D26818] [34D157CB] CRC32
04 84,5 [A4C1103A] [A58121FD] CRC32
05 89,9 [EBBE72DB] [F8A7CC12] CRC32
06 40,3 [712115B0] [20E6AD2B] CRC32
07 79,7 [77110B66] 406F2EA CRC32
08 85,5 [77D4D88B] [FCA7ECC2] CRC32
09 37,6 [446A0822] [2A2C0547] CRC32
10 97,9 [A036972D] [C9B3A14D] CRC32
11 71,9 [91BC16FF] [A44A52E3] CRC32
12 84,4 [CF5F8445] [669DFECC] CRC32
13 75,6 [7F6AD879] F0BC513 CRC32
14 51,1 [A87113D4] [8994D2B3] CRC32
15 75,6 AF60FA8 [3906C0A6] CRC32
16 71,7 [97ECB372] [9C08B999] CRC32
17 82,6 [23C98AC3] [49F9EE30] CRC32
18 80,8 [F1E6047D] [D5D6194E] CRC32
original uploader unknown, found in my archive
password: asd
DOWNLOAD LINKS:
Buy Premium To Support Me & Get Resumable Support & Max Speed

Rapidgator.net:
Uploaded.net:
Uploadable.ch:

Links are Interchangeable - No Password - Single Extraction




Related Posts
39 days

 Date: 08/13/19 02:31   in : Music 

Total tracks: 1 | Size: 13.28 MB Formats: mp3 Music:Album: Time LoopArtist: Ne-Yo feat. Ne-YoGenre: R&BDate: 2019DOWNLOAD(Buy premium account for maximum speed and resuming ability)http://nitroflare.com/view/DD3B299FF965DD2/ofq5p.Ne.Yo.Time.Loop.SINGLE.2019.rarhttps://rapidgator.net/file/85d...

 

39 days

 Date: 08/13/19 02:31   in : Music 

Total tracks: 11 | Size: 261.12 MB | Formats: flac... Music:Album: ImmunityArtist: ClairoGenre: AlternativeDate: 2019https://rapidgator.net/file/e4ecf6aaba439db14752db8f4edd5b3b/11.-.I.Wouldnt.Ask.You.Explicit.rarhttp://nitroflare.com/view/7C3333A6DEB6763/11.-.I.Wouldnt.Ask.You.Explicit.rar...

 

39 days

 Date: 08/13/19 02:31   in : Music 

Total tracks: 10 | Size: 73.33 MB Formats: mp3 Music:Album: Twisted MetalArtist: Chad Conquering Lion feat. Ken BlvdGenre: RapDate: 2019DOWNLOAD(Buy premium account for maximum speed and resuming ability)http://nitroflare.com/view/D61CF00C1588287/6sr19.Chad.Conquering.Lion.Twisted.Metal.2019...

 

39 days

 Date: 08/13/19 02:31   in : Music 

Total tracks: 10 | Size: 456.69 MB | Formats: flac Music:Album: HonestlyArtist: Boney JamesGenre: JazzDate: 2017https://rapidgator.net/file/dcf7c505980e6955578a7019c2c2e3ee/07.-.Speak.Easy.rarhttp://nitroflare.com/view/1813E41A736DCC9/07.-.Speak.Easy.rar

 

39 days

 Date: 08/13/19 02:31   in : Music 

Total tracks: 5 | Size: 39.34 MB Formats: mp3 Music:Album: LH914 (EP)Artist: Kelvyn ColtGenre: RapDate: 2017DOWNLOAD(Buy premium account for maximum speed and resuming ability)http://nitroflare.com/view/2A779D3339A72D9/25p85.Kelvyn.Colt.LH914.EP.2017.rarhttps://rapidgator.net/file/0dd05180bb...

 

39 days

 Date: 08/13/19 02:31   in : Music 

Total tracks: 15 | Size: 1.26 GB | Formats: flac Music:Album: RiseArtist: SkilletGenre: RockDate: 2013https://rapidgator.net/file/1995315f983431f9cdd290540fc01677/03.-.Good.To.Be.Alive.rarhttp://nitroflare.com/view/A1A1353125DB5EC/03.-.Good.To.Be.Alive.rar

 

39 days

 Date: 08/13/19 02:31   in : Music 

Total tracks: 18 | Size: 144.5 MB Formats: mp3 Music:Album: FireArtist: Davina JoyGenre: R&BDate: 2019DOWNLOAD(Buy premium account for maximum speed and resuming ability)http://nitroflare.com/view/5B444A6B25FCFCE/ro9lv.Davina.Joy.Fire.2019.rarhttps://rapidgator.net/file/ff1ed230d5f611831a5f8...

 

V.A. - Rolling Stone Magazine's 500 Greatest Songs of All Time (2004) Part 2WEB FLAC (*tracks) | Run Time: 05:27:59 | 2.45 Gb | Artwork 25.42 MbGenre: Pop, Rock, Rock'n'Roll, Blues, Folk, Punk, Soul/Funk, DiscoLabel: Chrysalis, Columbia, Elektra, Warner Bros. Records. 101. The Rolling Ston...

 

39 days

 Date: 08/13/19 02:31   in : Music 

Total tracks: 8 | Size: 94.59 MB Formats: mp3 Music:Album: BudgieArtist: BudgieGenre: RockDate: 1971DOWNLOAD(Buy premium account for maximum speed and resuming ability)http://nitroflare.com/view/D583D43DA2B6659/ntsz7.Budgie.Budgie.1971.rarhttps://rapidgator.net/file/ff4446327e170173ed11ce1c6...

 

39 days

 Date: 08/13/19 02:31   in : Music 

Total tracks: 20 | Size: 968.6 MB | Formats: flac Music:Album: Unleashed Beyond (Special Edition)Artist: SkilletGenre: Alternative RockDate: 2017https://rapidgator.net/file/685bae38422474adeadd74f9a42040cc/13.-.Breaking.Free.feat..Lacey.Sturm.rar