Direct Download Dr Josh Axe - BurstFIT Home Fitness Program

Hits: 515

BurstFIT home fitness DVD program. Led by Dr. Josh Axe. The workouts were designed to burn maximum fat in a short amount of time, by applying the science behind interval training.

Are you ready to get fit, fast? BurstFit is the perfect home workout DVD program that can get you results, fast! Follow along as your personal trainer, Dr. Josh Axe, guides you through his exclusive Burst-Interval System that combines strength, cardio, and core training to blast off body fat. The package includes 3 discs and 7 intense workouts to deliver a lean and toned body.
Disc 1 - Burst Off Body Fat - Jump start your weight loss and melt away fat around the mid-section
Disc 2 - Total Body Shred - Loaded with exercises specifically designed to give you the most effective workout, in the least amount of time possible.
Disc 3 - The Bowen Butt Lift - Tighten, firm and lift your glutes with special fitness guest, Suzanne Bowen
General
Complete name : Leg and Core Shred.mp4
Format : MPEG-4
Format profile : Base Media / Version 2
Codec ID : mp42
File size : 321 MiB
Duration : 23mn 30s
Overall bit rate mode : Variable
Overall bit rate : 1 911 Kbps
Writing application : HandBrake 0.10.1 2015030800
Video
ID : 1
Format : AVC
Format/Info : Advanced Video Codec
Format profile :
Format settings, CABAC : Yes
Format settings, ReFrames : 4 frames
Codec ID : avc1
Codec ID/Info : Advanced Video Coding
Duration : 23mn 30s
Bit rate : 1 744 Kbps
Width : 720 pixels
Height : 480 pixels
Display aspect ratio : 16:9
Original display aspect rat : 16:9
Frame rate mode : Variable
Frame rate : 29.970 fps
Minimum frame rate : 14.985 fps
Maximum frame rate : 29.970 fps
Standard : NTSC
Color space : YUV
Chroma subsampling : 4:2:0
Bit depth : 8 bits
Scan type : Progressive
Bits/(Pixel*Frame) : 0.168
Stream size : 293 MiB (91%)
Writing library : x264 core 142 r2479 dd79a61
Encoding settings : cabac=1 / ref=1 / deblock=1:0:0 / analyse=0x1:0x111 / me=hex / subme=2 / psy=1 / psy_rd=1.00:0.00 / mixed_ref=0 / me_range=16 / chroma_me=1 / trellis=0 / 8x8dct=0 / cqm=0 / deadzone=21,11 / fast_pskip=1 / chroma_qp_offset=0 / threads=6 / lookahead_threads=2 / sliced_threads=0 / nr=0 / decimate=1 / interlaced=0 / bluray_compat=0 / constrained_intra=0 / bframes=3 / b_pyramid=2 / b_adapt=1 / b_bias=0 / direct=1 / weightb=1 / open_gop=0 / weightp=1 / keyint=300 / keyint_min=30 / scenecut=40 / intra_refresh=0 / rc_lookahead=10 / rc=2pass / mbtree=1 / bitrate=1744 / ratetol=1.0 / qcomp=0.60 / qpmin=0 / qpmax=69 / qpstep=4 / cplxblur=20.0 / qblur=0.5 / vbv_maxrate=20000 / vbv_bufsize=25000 / nal_hrd=none / filler=0 / ip_ratio=1.40 / aq=1:1.00
Color range : Limited
Color primaries : BT.601 NTSC
Transfer characteristics : BT.709
Matrix coefficients : BT.601
Audio
ID : 2
Format : AAC
Format/Info : Advanced Audio Codec
Format profile : LC
Codec ID : 40
Duration : 23mn 30s
Bit rate mode : Variable
Bit rate : 160 Kbps
Channel(s) : 2 channels
Channel positions : Front: L R
Sampling rate : 48.0 KHz
Compression mode : Lossy
Stream size : 26.9 MiB (8%)
Title : Stereo / Stereo
Menu
ID : 3
Codec ID : text
Duration : 23mn 30s
Language : English
Bit rate mode : CBR
00:00:00.000 : Chapter 1
00:03:21.401 : Chapter 2
00:07:21.641 : Chapter 3
00:11:50.410 : Chapter 4
00:15:54.153 : Chapter 5
00:19:53.392 : Chapter 6
00:23:28.607 : Chapter 7
Download link:

rapidgator_net:
uploadgig_com:

Links are Interchangeable - No Password - Single Extraction




Related Posts
336 days

 Date: 08/13/19 02:41   in : Tutorials  Programming 

Packt - Python Clean Coding-RiDWAREEnglish | Size: 442.47 MBCategory: CBTsLearn Practical examples and case studies to demonstrate effective coding Set up a programming environment that encourages beautiful code How to take full advantage of Python features to make your code elegant ...

 

Technics Publications The Go Programming Language Advanced Topics in Go Golang-RiDWAREEnglish | Size: 385.83 MBCategory: CBTs Take your Go programming skills to the next level in this Advanced Topics in Go video series from Go Programming expert Zanis Khan. Click here to watch Zanis' other videos i...

 

338 days

 Date: 08/11/19 02:40   in : Tutorials  Programming 

Packt - Data Statistics with Full Stack Python-XCODEEnglish | Size: 2.87 GBCategory: CBTsLearn How to set up your Python environment How to manipulate String & Variables with Python How to use Booleans & Logical Operators with Python How to use Functions & Packages with Python How...

 

340 days

 Date: 08/09/19 02:39   in : Tutorials  Programming 

Packt - Firebase Application Development Projects-JGTiSOEnglish | Size: 834.41 MBCategory: TutorialLearn How Firebase helps speed up the development process Save time and customize your own authentication system Easily send and receive data from your database Create real-time web app...

 

340 days

 Date: 08/09/19 02:39   in : Tutorials  Programming 

Packt - Scalable Data Analysis in Python with DaskEnglish | Size: 1.09 GB Category: Programming | E-learningLearn Understand the concept of Block algorithms and how Dask leverages it to load large data. Implement various example using Dask Arrays, Bags, and Dask Data frames for efficient par...

 

Packt - Autonomous Cars Deep Learning and Computer Vision in Python-JGTiSOEnglish | Size: 3.20 GBCategory: TutorialLearn Automatically detect lane markings in images Detect cars and pedestrians using a trained classifier and with SVM Classify traffic signs using Convolutional Neural Net...

 

Packt - How to Push Django Python Apps to Heroku for Web Hosting-JGTiSOEnglish | Size: 575.64 MB Category: TutorialLearn Install Python Install Django Install Virtualenv Install Git Bash Install the Heroku Toolbelt Install Heroku dependencies Push Django code to Heroku Cr...

 

Packt - Dart Masterclass Programming Course Iosandroid Bible-JGTiSOEnglish | Size: 0.99 GBCategory: TutorialLearn Dart programming Android programming iOS programming Mobile development Application programming Mobile design Semantics of general programming The format of c...

 

Packt - Hands On Cross Platform Desktop Apps with Electron 5.0-RiDWAREEnglish | Size: 488.99 MBCategory: TutorialBuild an awesome production-ready cross-platform desktop application using Electron and React.jsMore InformationLearn~Implement the core fundamentals of Electron.js to create an applicat...

 

Linkedin - Learning Creating Interactive Tableau Dashboards-BiFiSOEnglish | Size: 514.82 MB Category: TutorialExplore your data in new ways with interactive dashboards in Tableau. Dashboards act like dynamic reports that can be used for in-depth data analysis or to present information to clients. I...